You are here

Icke

David Icke on the Rise of Big Brothers Brother

SizeSeedsPeersCompleted
1.54 GiB00368
This torrent has no flags.


General David Icke on the Rise of Big Brothers Brother.mkv Format : Matroska Format version : Version 4 File size : 1.54 GiB Duration : 59 min 33 s Overall bit rate : 3 691 kb/s Encoded date : UTC 2022-09-06 11:22:48 Writing application : mkvmerge v70.0.0 ('Caught A Lite Sneeze') 64-bit Writing library : libebml v1.4.2 + libmatroska v1.6.4 Video ID : 1 Format : AVC Format/Info : Advanced Video Codec Format profile : High@L4 Format settings : CABAC / 4 Ref Frames Format settings, CABAC : Yes Format settings, Reference : 4 frames Codec ID : V_MPEG4/ISO/AVC Duration : 59 min 33 s Bit rate : 3 496 kb/s Width : 1 920 pixels Height : 1 080 pixels Display aspect ratio : 16:9 Frame rate mode : Constant Frame rate : 29.970 (30000/1001) FPS Color space : YUV Chroma subsampling : 4:2:0 Bit depth : 8 bits Scan type : Progressive Bits/(Pixel*Frame) : 0.056 Stream size : 1.45 GiB (95%) Default : Yes Forced : No Color range : Limited Color primaries : BT.709 Transfer characteristics : BT.709 Matrix coefficients : BT.709 Audio ID : 2 Format : AAC LC Format/Info : Advanced Audio Codec Low Complexity Codec ID : A_AAC-2 Duration : 59 min 33 s Bit rate : 192 kb/s Channel(s) : 2 channels Channel layout : L R Sampling rate : 48.0 kHz Frame rate : 46.875 FPS (1024 SPF) Compression mode : Lossy Stream size : 81.8 MiB (5%) Default : Yes Forced : No

What would 1984 author George Orwell think of today’s constant surveillance technology? In an interview with Regina Meredith, investigator David Icke explained just how far governments are going to know everything about you.

David Icke (pronounced "Ike") is a former Professional Soccer player, journalist, network anchorman with the BBC, spokesman in the 1980's for the British Green Party, and since 1990, a full-time investigator of who and what is really controlling the world.

Radical Truth Knowledge and Revolution Part One with David Icke

SizeSeedsPeersCompleted
2.91 GiB00268
This torrent has no flags.


General Radical Truth Knowledge and Revolution Part One with David Icke.mkv Format : Matroska Format version : Version 4 File size : 2.91 GiB Duration : 1 h 52 min Overall bit rate : 3 709 kb/s Encoded date : UTC 2022-09-06 11:09:40 Writing application : mkvmerge v70.0.0 ('Caught A Lite Sneeze') 64-bit Writing library : libebml v1.4.2 + libmatroska v1.6.4 Video ID : 1 Format : AVC Format/Info : Advanced Video Codec Format profile : High@L3 Format settings : CABAC / 4 Ref Frames Format settings, CABAC : Yes Format settings, Reference : 4 frames Format settings, GOP : M=3, N=30 Codec ID : V_MPEG4/ISO/AVC Duration : 1 h 52 min Bit rate : 3 515 kb/s Width : 720 pixels Height : 480 pixels Display aspect ratio : 3:2 Frame rate mode : Constant Frame rate : 29.970 (30000/1001) FPS Standard : NTSC Color space : YUV Chroma subsampling : 4:2:0 Bit depth : 8 bits Scan type : Progressive Bits/(Pixel*Frame) : 0.339 Stream size : 2.76 GiB (95%) Default : Yes Forced : No Color range : Limited Transfer characteristics : BT.601 Matrix coefficients : BT.601 Audio ID : 2 Format : AAC LC Format/Info : Advanced Audio Codec Low Complexity Codec ID : A_AAC-2 Duration : 1 h 52 min Bit rate : 192 kb/s Channel(s) : 2 channels Channel layout : L R Sampling rate : 48.0 kHz Frame rate : 46.875 FPS (1024 SPF) Compression mode : Lossy Stream size : 153 MiB (5%) Default : Yes Forced : No

The Reptilian Agenda with Credo Mutwa and David Icke

SizeSeedsPeersCompleted
5.03 GiB00386
This torrent has no flags.


General The Reptilian Agenda with Credo Mutwa - Part 1.mkv Format : Matroska Format version : Version 4 File size : 2.83 GiB Duration : 3 h 35 min Overall bit rate : 1 880 kb/s Encoded date : UTC 2022-09-02 06:34:03 Writing application : mkvmerge v70.0.0 ('Caught A Lite Sneeze') 64-bit Writing library : libebml v1.4.2 + libmatroska v1.6.4 Video ID : 1 Format : AVC Format/Info : Advanced Video Codec Format profile : High@L3.1 Format settings : CABAC / 4 Ref Frames Format settings, CABAC : Yes Format settings, Reference : 4 frames Codec ID : V_MPEG4/ISO/AVC Duration : 3 h 35 min Bit rate : 1 750 kb/s Width : 720 pixels Height : 540 pixels Display aspect ratio : 4:3 Frame rate mode : Constant Frame rate : 29.970 (30000/1001) FPS Color space : YUV Chroma subsampling : 4:2:0 Bit depth : 8 bits Scan type : Progressive Bits/(Pixel*Frame) : 0.150 Stream size : 2.63 GiB (93%) Writing library : x264 core 155 Language : English Default : Yes Forced : No Audio ID : 2 Format : AAC LC Format/Info : Advanced Audio Codec Low Complexity Codec ID : A_AAC-2 Duration : 3 h 35 min Bit rate : 128 kb/s Channel(s) : 2 channels Channel layout : L R Sampling rate : 48.0 kHz Frame rate : 46.875 FPS (1024 SPF) Compression mode : Lossy Stream size : 197 MiB (7%) Language : English Default : Yes Forced : No

Filmed in South Africa, David Icke speaks to late Shaman Credo Mutwa who is one of the keepers of the ancient knowledge. This incredible 2 part documentary shows how our reality is very different from the one we're led to believe exists.

Beyond the Cutting Edge - David Icke (Brixton 2008)

SizeSeedsPeersCompleted
1.75 GiB00198
This torrent has no flags.


General Beyond the Cutting Edge - David Icke (Brixton 2008) - Part 1.mkv Format : Matroska Format version : Version 4 File size : 661 MiB Duration : 2 h 37 min Overall bit rate : 585 kb/s Encoded date : UTC 2022-09-02 06:02:55 Writing application : mkvmerge v70.0.0 ('Caught A Lite Sneeze') 64-bit Writing library : libebml v1.4.2 + libmatroska v1.6.4 Video ID : 1 Format : AVC Format/Info : Advanced Video Codec Format profile : High@L3 Format settings : CABAC / 4 Ref Frames Format settings, CABAC : Yes Format settings, Reference : 4 frames Codec ID : V_MPEG4/ISO/AVC Duration : 2 h 37 min Bit rate : 455 kb/s Width : 634 pixels Height : 368 pixels Display aspect ratio : 1.720 Original display aspect rat : 1.719 Frame rate mode : Constant Frame rate : 29.970 (30000/1001) FPS Color space : YUV Chroma subsampling : 4:2:0 Bit depth : 8 bits Scan type : Progressive Bits/(Pixel*Frame) : 0.065 Stream size : 513 MiB (78%) Writing library : x264 core 155 Default : Yes Forced : No Audio ID : 2 Format : AAC LC Format/Info : Advanced Audio Codec Low Complexity Codec ID : A_AAC-2 Duration : 2 h 37 min Bit rate : 128 kb/s Channel(s) : 2 channels Channel layout : L R Sampling rate : 48.0 kHz Frame rate : 46.875 FPS (1024 SPF) Compression mode : Lossy Stream size : 145 MiB (22%) Default : Yes Forced : No

For the Third time in 3 years David sells out the 2500 seater Brixton Academy in London for his latest show.

Speaking Out - 2 Hours of Interviews with David Icke (1995)

SizeSeedsPeersCompleted
637.49 MiB00212
This torrent has no flags.


General Speaking Out - 2 Hours of Interviews with David Icke (1995).mkv Format : Matroska Format version : Version 4 File size : 637 MiB Duration : 1 h 55 min Overall bit rate : 769 kb/s Encoded date : UTC 2022-09-02 05:46:15 Writing application : mkvmerge v70.0.0 ('Caught A Lite Sneeze') 64-bit Writing library : libebml v1.4.2 + libmatroska v1.6.4 Video ID : 1 Format : AVC Format/Info : Advanced Video Codec Format profile : High@L3.1 Format settings : CABAC / 4 Ref Frames Format settings, CABAC : Yes Format settings, Reference : 4 frames Codec ID : V_MPEG4/ISO/AVC Duration : 1 h 55 min Bit rate : 638 kb/s Width : 742 pixels Height : 572 pixels Display aspect ratio : 1.297 Original display aspect rat : 1.298 Frame rate mode : Constant Frame rate : 25.000 FPS Color space : YUV Chroma subsampling : 4:2:0 Bit depth : 8 bits Scan type : Progressive Bits/(Pixel*Frame) : 0.060 Stream size : 529 MiB (83%) Writing library : x264 core 155 Default : Yes Forced : No Audio ID : 2 Format : AAC LC Format/Info : Advanced Audio Codec Low Complexity Codec ID : A_AAC-2 Duration : 1 h 55 min Bit rate : 128 kb/s Channel(s) : 2 channels Channel layout : L R Sampling rate : 48.0 kHz Frame rate : 46.875 FPS (1024 SPF) Compression mode : Lossy Stream size : 106 MiB (17%) Default : Yes Forced : No

In Conversation with David Icke 1080p

SizeSeedsPeersCompleted
15.13 GiB10252
This torrent has no flags.


General In Conversation with David Icke - Episode 1 - An Introduction to David.mkv Format : Matroska Format version : Version 4 File size : 1.63 GiB Duration : 39 min 8 s Overall bit rate : 5 961 kb/s Encoded date : UTC 2022-09-01 18:36:39 Writing application : mkvmerge v70.0.0 ('Caught A Lite Sneeze') 64-bit Writing library : libebml v1.4.2 + libmatroska v1.6.4 Video ID : 1 Format : AVC Format/Info : Advanced Video Codec Format profile : High@L4 Format settings : CABAC / 4 Ref Frames Format settings, CABAC : Yes Format settings, Reference : 4 frames Codec ID : V_MPEG4/ISO/AVC Duration : 39 min 7 s Bit rate : 5 833 kb/s Width : 1 920 pixels Height : 1 080 pixels Display aspect ratio : 16:9 Frame rate mode : Constant Frame rate : 25.000 FPS Color space : YUV Chroma subsampling : 4:2:0 Bit depth : 8 bits Scan type : Progressive Bits/(Pixel*Frame) : 0.113 Stream size : 1.59 GiB (98%) Writing library : x264 core 155 Default : Yes Forced : No Audio ID : 2 Format : AAC LC Format/Info : Advanced Audio Codec Low Complexity Codec ID : A_AAC-2 Duration : 39 min 8 s Bit rate : 128 kb/s Channel(s) : 2 channels Channel layout : L R Sampling rate : 48.0 kHz Frame rate : 46.875 FPS (1024 SPF) Compression mode : Lossy Stream size : 35.8 MiB (2%) Default : Yes Forced : No

The First Ickonic Original Series, in these 10 Episodes Amanda Chamber's sits down with David Icke and takes a deeper look into some of his theories and teachings, and something that is so rarely done, a look at the man behind the information and who he really is. What drives him on? Why after 30 years is he still going?

The Nature of Reality - Presented by David Icke (2022) 1080p

SizeSeedsPeersCompleted
10.43 GiB10538
This torrent has no flags.


General E001.mkv Format : Matroska Format version : Version 4 File size : 798 MiB Duration : 19 min 38 s Overall bit rate : 5 676 kb/s Encoded date : UTC 2022-09-01 15:50:48 Writing application : mkvmerge v70.0.0 ('Caught A Lite Sneeze') 64-bit Writing library : libebml v1.4.2 + libmatroska v1.6.4 Video ID : 1 Format : AVC Format/Info : Advanced Video Codec Format profile : High@L4 Format settings : CABAC / 4 Ref Frames Format settings, CABAC : Yes Format settings, Reference : 4 frames Codec ID : V_MPEG4/ISO/AVC Duration : 19 min 38 s Bit rate : 5 545 kb/s Width : 1 920 pixels Height : 1 080 pixels Display aspect ratio : 16:9 Frame rate mode : Constant Frame rate : 25.000 FPS Color space : YUV Chroma subsampling : 4:2:0 Bit depth : 8 bits Scan type : Progressive Bits/(Pixel*Frame) : 0.107 Stream size : 779 MiB (98%) Writing library : x264 core 155 Default : Yes Forced : No Audio ID : 2 Format : AAC LC Format/Info : Advanced Audio Codec Low Complexity Codec ID : A_AAC-2 Duration : 19 min 38 s Bit rate : 128 kb/s Channel(s) : 2 channels Channel layout : L R Sampling rate : 48.0 kHz Frame rate : 46.875 FPS (1024 SPF) Compression mode : Lossy Stream size : 18.0 MiB (2%) Default : Yes Forced : No

Pages

Subscribe to RSS - Icke