You are here

Icke

Banned Book Club S01E01-E05 (2022)

SizeSeedsPeersCompleted
3.89 GiB00430
FlagCount
Thanks given1

banned-book-club-thumbnail-banned-book-club-thumbnail.jpg

The David Icke Show - The Dot Connector - Saturday 17th September

SizeSeedsPeersCompleted
2.73 GiB00284
This torrent has no flags.


General The David Icke Show - The Dot Connector - Saturday 17th September.mkv Format : Matroska Format version : Version 4 File size : 2.73 GiB Duration : 1 h 16 min Overall bit rate : 5 141 kb/s Encoded date : UTC 2022-09-18 11:22:30 Writing application : mkvmerge v70.0.0 ('Caught A Lite Sneeze') 64-bit Writing library : libebml v1.4.2 + libmatroska v1.6.4 Video ID : 1 Format : AVC Format/Info : Advanced Video Codec Format profile : High@L4 Format settings : CABAC / 4 Ref Frames Format settings, CABAC : Yes Format settings, Reference : 4 frames Codec ID : V_MPEG4/ISO/AVC Duration : 1 h 16 min Bit rate : 5 011 kb/s Width : 1 920 pixels Height : 1 080 pixels Display aspect ratio : 16:9 Frame rate mode : Constant Frame rate : 25.000 FPS Color space : YUV Chroma subsampling : 4:2:0 Bit depth : 8 bits Scan type : Progressive Bits/(Pixel*Frame) : 0.097 Stream size : 2.66 GiB (97%) Writing library : x264 core 163 Default : Yes Forced : No Audio ID : 2 Format : AAC LC Format/Info : Advanced Audio Codec Low Complexity Codec ID : A_AAC-2 Duration : 1 h 16 min Bit rate : 128 kb/s Channel(s) : 2 channels Channel layout : L R Sampling rate : 48.0 kHz Frame rate : 46.875 FPS (1024 SPF) Compression mode : Lossy Stream size : 69.7 MiB (2%) Default : Yes Forced : No

David Icke talks about recent news.

Synchronicity - 70 Years of David Icke

SizeSeedsPeersCompleted
1.21 GiB10312
This torrent has no flags.


General Synchronicity - 70 Years of David Icke.mkv Format : Matroska Format version : Version 4 File size : 1.21 GiB Duration : 29 min 7 s Overall bit rate : 5 937 kb/s Encoded date : UTC 2022-09-17 20:20:03 Writing application : mkvmerge v70.0.0 ('Caught A Lite Sneeze') 64-bit Writing library : libebml v1.4.2 + libmatroska v1.6.4 Video ID : 1 Format : AVC Format/Info : Advanced Video Codec Format profile : High@L4 Format settings : CABAC / 4 Ref Frames Format settings, CABAC : Yes Format settings, Reference : 4 frames Codec ID : V_MPEG4/ISO/AVC Duration : 29 min 7 s Bit rate : 5 806 kb/s Width : 1 920 pixels Height : 1 080 pixels Display aspect ratio : 16:9 Frame rate mode : Constant Frame rate : 25.000 FPS Color space : YUV Chroma subsampling : 4:2:0 Bit depth : 8 bits Scan type : Progressive Bits/(Pixel*Frame) : 0.112 Stream size : 1.18 GiB (98%) Writing library : x264 core 155 Default : Yes Forced : No Audio ID : 2 Format : AAC LC Format/Info : Advanced Audio Codec Low Complexity Codec ID : A_AAC-2 Duration : 29 min 7 s Bit rate : 128 kb/s Channel(s) : 2 channels Channel layout : L R Sampling rate : 48.0 kHz Frame rate : 46.875 FPS (1024 SPF) Compression mode : Lossy Stream size : 26.7 MiB (2%) Default : Yes Forced : No

The story of David Icke's journey from footballer to world known author and researcher is an incredible ride, filled with ups and downs, twists and turns and everything in between. A truly unique example of what hard work, dedication and commitment can achieve. This short film takes you on that journey from the very beginning of David's life right through to his 70th year of 2022.

Out With The Ickes - Part 1 and 2

SizeSeedsPeersCompleted
3.1 GiB00212
This torrent has no flags.


General Out With The Ickes - Part 1.mkv Format : Matroska Format version : Version 4 File size : 1.54 GiB Duration : 1 h 0 min Overall bit rate : 3 649 kb/s Encoded date : UTC 2022-09-17 20:19:27 Writing application : mkvmerge v70.0.0 ('Caught A Lite Sneeze') 64-bit Writing library : libebml v1.4.2 + libmatroska v1.6.4 Video ID : 1 Format : AVC Format/Info : Advanced Video Codec Format profile : High@L3.2 Format settings : CABAC / 4 Ref Frames Format settings, CABAC : Yes Format settings, Reference : 4 frames Codec ID : V_MPEG4/ISO/AVC Duration : 1 h 0 min Bit rate : 3 519 kb/s Width : 1 280 pixels Height : 720 pixels Display aspect ratio : 16:9 Frame rate mode : Constant Frame rate : 30.000 FPS Color space : YUV Chroma subsampling : 4:2:0 Bit depth : 8 bits Scan type : Progressive Bits/(Pixel*Frame) : 0.127 Stream size : 1.48 GiB (96%) Writing library : x264 core 163 Default : Yes Forced : No Color range : Limited Color primaries : BT.709 Transfer characteristics : BT.709 Matrix coefficients : BT.709 Audio ID : 2 Format : AAC LC Format/Info : Advanced Audio Codec Low Complexity Codec ID : A_AAC-2 Duration : 1 h 0 min Bit rate : 128 kb/s Channel(s) : 2 channels Channel layout : L R Sampling rate : 48.0 kHz Frame rate : 46.875 FPS (1024 SPF) Compression mode : Lossy Stream size : 55.2 MiB (4%) Default : Yes Forced : No

out-with-the-ickes-part-1-mkv_thumbs.pngout-with-the-ickes-part-2-mkv_thumbs.png

Breaking Archontic Control with David Icke

SizeSeedsPeersCompleted
1.95 GiB10470
This torrent has no flags.


General breaking-archontic-control-david-icke.mkv Format : Matroska Format version : Version 4 File size : 1.95 GiB Duration : 1 h 15 min Overall bit rate : 3 692 kb/s Encoded date : UTC 2022-09-07 12:09:44 Writing application : mkvmerge v70.0.0 ('Caught A Lite Sneeze') 64-bit Writing library : libebml v1.4.2 + libmatroska v1.6.4 Video ID : 1 Format : AVC Format/Info : Advanced Video Codec Format profile : High@L4 Format settings : CABAC / 4 Ref Frames Format settings, CABAC : Yes Format settings, Reference : 4 frames Codec ID : V_MPEG4/ISO/AVC Duration : 1 h 15 min Bit rate : 3 498 kb/s Width : 1 920 pixels Height : 1 080 pixels Display aspect ratio : 16:9 Frame rate mode : Constant Frame rate : 23.976 (24000/1001) FPS Color space : YUV Chroma subsampling : 4:2:0 Bit depth : 8 bits Scan type : Progressive Bits/(Pixel*Frame) : 0.070 Stream size : 1.85 GiB (95%) Default : Yes Forced : No Color range : Limited Color primaries : BT.709 Transfer characteristics : BT.709 Matrix coefficients : BT.709 Audio ID : 2 Format : AAC LC Format/Info : Advanced Audio Codec Low Complexity Codec ID : A_AAC-2 Duration : 1 h 15 min Bit rate : 192 kb/s Channel(s) : 2 channels Channel layout : L R Sampling rate : 48.0 kHz Frame rate : 46.875 FPS (1024 SPF) Compression mode : Lossy Stream size : 104 MiB (5%) Default : Yes Forced : No

David Icke calls us to question the nature of the reality that we are living in, so that we can see the machinations manipulating our minds into lower states. We can use the healing force of love to free ourselves from the constant fear and anxiety. Breaking free from this archontic control enables us to tap into a reality beyond these projected paradigms and bring an end to the mass manipulation of our population. This interview was filmed, on location in London, England.

Pages

Subscribe to RSS - Icke