You are here

UFO Endgame To Disclosure (2023) [x265]

Primary tabs

SizeSeedsPeersCompleted
1.75 GiB3702958
This torrent has no flags.


Now that the Department of Defense acknowledges that the UFO phenomenon is real, what does that really tell us? From award winning Documentary Filmmakers Blake and Brent Cousins who brought you Countdown To Disclosure and Above Top Secret now bring you the latest shocking film ENDGAME and travel across America to speak with the Top experts in regards to the sosmic cover-up to reveal the secret technology that can change the world. Dr. Steven Greer comes forward with explosive information about the deadly game of suppressed technology that could eliminate the need for fossil fuels and save our planet from Ultimate destruction. Have you wondered if we are alone in the universe, is there technology that would rid our world of fossil fuels. With the advent of extensive UFO disclosure and growing transparency within our understanding of extraterrestrial technology on the horizon, through curiosity and necessity, one must question- How will this global revelation change our world? Is an Alien False Flag Event just around the corner? All these questions will be discussed in the new groundbreaking documentary.

https://www.reddit.com/user/ConspiracyTorrents/posts/



Quote:

General
Unique ID : 263345094869512374866711150304356546255 (0xC61E6B9EC9D66E903B3D0E2D9F1D36CF)
Complete name : D:\UFO Endgame To Disclosure (2023) 1080p WEBRip x265 TurdFaceBaboon\UFO Endgame To Disclosure (2023) 1080p WEBRip x265 TurdFaceBaboon.mkv
Format : Matroska
Format version : Version 4
File size : 1.75 GiB
Duration : 1 h 54 min
Overall bit rate : 2 190 kb/s
Movie name : Downloaded from https://www.reddit.com/user/ConspiracyTorrents/posts/
Encoded date : UTC 2023-04-06 19:32:06
Writing application : mkvmerge v67.0.0 ('Under Stars') 64-bit
Writing library : libebml v1.4.2 + libmatroska v1.6.4

Video
ID : 1
Format : HEVC
Format/Info : High Efficiency Video Coding
Format profile : Main 10@L4@Main
Codec ID : V_MPEGH/ISO/HEVC
Duration : 1 h 54 min
Bit rate : 1 998 kb/s
Width : 1 920 pixels
Height : 1 080 pixels
Display aspect ratio : 16:9
Frame rate mode : Constant
Frame rate : 23.976 (24000/1001) FPS
Color space : YUV
Chroma subsampling : 4:2:0
Bit depth : 10 bits
Bits/(Pixel*Frame) : 0.040
Stream size : 1.60 GiB (91%)
Writing library : x265 3.5+37+12-4e46995bc:[Windows][MSVC 1931][64 bit] 10bit
Encoding settings : cpuid=1111039 / frame-threads=4 / numa-pools=16 / wpp / no-pmode / no-pme / no-psnr / no-ssim / log-level=2 / input-csp=1 / input-res=1920x1080 / interlace=0 / total-frames=164750 / level-idc=0 / high-tier=1 / uhd-bd=0 / ref=4 / no-allow-non-conformance / no-repeat-headers / annexb / no-aud / no-eob / no-eos / no-hrd / info / hash=0 / no-temporal-layers / open-gop / min-keyint=23 / keyint=250 / gop-lookahead=0 / bframes=8 / b-adapt=2 / b-pyramid / bframe-bias=0 / rc-lookahead=25 / lookahead-slices=4 / scenecut=40 / no-hist-scenecut / radl=0 / no-splice / no-intra-refresh / ctu=64 / min-cu-size=8 / rect / no-amp / max-tu-size=32 / tu-inter-depth=1 / tu-intra-depth=1 / limit-tu=0 / rdoq-level=2 / dynamic-rd=0.00 / no-ssim-rd / signhide / no-tskip / nr-intra=0 / nr-inter=0 / no-constrained-intra / strong-intra-smoothing / max-merge=3 / limit-refs=3 / limit-modes / me=3 / subme=3 / merange=57 / temporal-mvp / no-frame-dup / no-hme / weightp / no-weightb / no-analyze-src-pics / deblock=-3:-3 / no-sao / no-sao-non-deblock / rd=4 / selective-sao=0 / no-early-skip / rskip / no-fast-intra / no-tskip-fast / no-cu-lossless / no-b-intra / no-splitrd-skip / rdpenalty=0 / psy-rd=2.00 / psy-rdoq=1.00 / no-rd-refine / no-lossless / cbqpoffs=0 / crqpoffs=0 / rc=abr / bitrate=2000 / qcomp=0.60 / qpstep=4 / stats-write=0 / stats-read=0 / ipratio=1.40 / pbratio=1.30 / aq-mode=5 / aq-strength=1.00 / aq-bias-strength=1.00 / cutree / zone-count=0 / no-strict-cbr / qg-size=32 / no-rc-grain / qpmax=69 / qpmin=0 / no-const-vbv / sar=0 / overscan=0 / videoformat=5 / range=0 / colorprim=1 / transfer=1 / colormatrix=1 / chromaloc=0 / display-window=0 / cll=0,0 / min-luma=0 / max-luma=1023 / log2-max-poc-lsb=8 / vui-timing-info / vui-hrd-info / slices=1 / no-opt-qp-pps / no-opt-ref-list-length-pps / no-multi-pass-opt-rps / scenecut-bias=0.05 / hist-threshold=0.03 / no-opt-cu-delta-qp / no-aq-motion / no-hdr10 / no-hdr10-opt / no-dhdr10-opt / no-idr-recovery-sei / analysis-reuse-level=0 / analysis-save-reuse-level=0 / analysis-load-reuse-level=0 / scale-factor=0 / refine-intra=0 / refine-inter=0 / refine-mv=1 / refine-ctu-distortion=0 / no-limit-sao / ctu-info=0 / no-lowpass-dct / refine-analysis-type=0 / copy-pic=1 / max-ausize-factor=1.0 / no-dynamic-refine / no-single-sei / no-hevc-aq / no-svt / no-field / qp-adaptation-range=1.00 / scenecut-aware-qp=0conformance-window-offsets / right=0 / bottom=0 / decoder-max-rate=0 / no-vbv-live-multi-pass
Default : Yes
Forced : No
Color range : Limited
Color primaries : BT.709
Transfer characteristics : BT.709
Matrix coefficients : BT.709

Audio
ID : 2
Format : AAC LC
Format/Info : Advanced Audio Codec Low Complexity
Codec ID : A_AAC-2
Duration : 1 h 54 min
Bit rate : 192 kb/s
Channel(s) : 2 channels
Channel layout : L R
Sampling rate : 48.0 kHz
Frame rate : 46.875 FPS (1024 SPF)
Compression mode : Lossy
Stream size : 155 MiB (9%)
Default : No
Forced : No

Text #1
ID : 3
Format : UTF-8
Codec ID : S_TEXT/UTF8
Codec ID/Info : UTF-8 Plain Text
Duration : 1 h 52 min
Bit rate : 118 b/s
Count of elements : 2193
Stream size : 98.0 KiB (0%)
Language : English
Default : No
Forced : No

Text #2
ID : 4
Format : UTF-8
Codec ID : S_TEXT/UTF8
Codec ID/Info : UTF-8 Plain Text
Duration : 1 h 52 min
Bit rate : 110 b/s
Count of elements : 2100
Stream size : 91.1 KiB (0%)
Language : French
Default : No
Forced : No

Text #3
ID : 5
Format : UTF-8
Codec ID : S_TEXT/UTF8
Codec ID/Info : UTF-8 Plain Text
Duration : 1 h 52 min
Bit rate : 120 b/s
Count of elements : 2104
Stream size : 99.7 KiB (0%)
Language : German
Default : No
Forced : No

Text #4
ID : 6
Format : UTF-8
Codec ID : S_TEXT/UTF8
Codec ID/Info : UTF-8 Plain Text
Duration : 1 h 52 min
Bit rate : 119 b/s
Count of elements : 2109
Stream size : 98.9 KiB (0%)
Language : Spanish
Default : No
Forced : No

Text #5
ID : 7
Format : UTF-8
Codec ID : S_TEXT/UTF8
Codec ID/Info : UTF-8 Plain Text
Duration : 1 h 52 min
Bit rate : 120 b/s
Count of elements : 2109
Stream size : 99.7 KiB (0%)
Language : Portuguese
Default : No
Forced : No

Comments

Thanks!

in case you dont get the joke - the movie is produced by "third phase of moon"

Nice! LOL

Yeah, I have been watching it tonight. It's pretty alright. Not bad, it's got the Greer info and all of that. It's more of an American UFOlogy, UAPology thing, really...

Wait, surely you're not saying what I think you are! LOL jk jk

https://www.youtube.com/watch?v=jK1ZeucciQg

Premiered Apr 5, 2023
Dr. Steven Greer - Whistle Blowers UFO / UAPs, Alien Phenomenon, and The Secret Government! Available Now UFO Endgame To Disclosure Link! https://geni.us/UFO_Endgame

Historic Disclosure Conference and DC Premiere of “The Lost Century” June 10 - 11, 2023 Monday, Then National Press Club Event June 12, 2023 WATCH LIVE for more information check out Website! https://drstevengreer.kartra.com/page/dcpressconference2023

1) Not a word about the Breakaway Civilization ?! Start from operation High Jump.
2) Roswell was totally a PsyOp, no aliens involved. Start from Col. Michael Aquino.
3) No mention about Free Energy ! Start from how can be permanent magnets.
4) All the .gov is irrelevant, for decades, including the pathetic elections. Start from anywhere.
5) Greer mention energy from fusion. This is BS. Star's energy come from outside, electrically.
6) Theere are time travel and time oversite. What chance "we the ppl" have agasint that ?