You are here

Top Secret UFO Projects Declassified s01

Primary tabs

SizeSeedsPeersCompleted
3.88 GiB10261
This torrent has no flags.


Top Secret UFO Projects Declassified will show how, despite repeated denials, the significance of UFO sightings has been analysed and discussed at the highest level of government in the UK, the United States and the former Soviet Union since the end of World War II. With interest in UFO phenomena on the rise in recent years, this series provides new insight into the UFO monitoring programmes the world’s leading governments have sought to hide and shocking facts about the real extent of reported extra-terrestrial contacts.

S01E01 - Project Blue Book Unknown
During the Cold War Project Blue Book came into being – aimed at gathering and analysing UFO observations. To this day, many cases still raise unanswered questions.

S01E02 - The White House Cover Up
What’s the truth of the organisation known as the MJ-12, an alleged secret committee of elite experts rumoured to have included an American President? Was its establishment related to the mysterious events over Roswell and could it still be active today?

S01E03 - Code Name Aurora
Phillip J. Corso claims that the US army possesses at least one crashed extra-terrestrial craft, what secrets are to be found behind the veil of the mysterious Project Aurora?

S01E04 - Hacked and Leaked
This episode follows the stories of American UFO witnesses Betty Cash and Vickie Landrum, Scottish hacker Gary McKinnon, former musician Tom Delonge and John Podesta.

S01E05 - Secret Soviet UFO Research
The Petrozavodsk incident of 1977 was the key moment which determined the official Soviet response to the UFO phenomenon. The sighting of unknown objects in the skies above the Russian city led to the creation of two special boards: scientific and military. In 1987, a military helicopter pursues an unknown object which fits the description of the “TIC-TAC” UFO.

S01E06 - After Disclosure
What do we know about the intentions of UFOs? Answers might be found in an incident that took place in the African city of Ruwa, where an unknown vehicle landed on the property of a school and whose crew members communicated telepathically with the local children.

https://www.imdb.com/title/tt14992232/

https://www.youtube.com/watch?v=PKqujexw7Ds

https://www.reddit.com/user/ConspiracyTorrents/posts/



Quote:

General
Unique ID : 119278487637831776870468376411911247596 (0x59BC337BB3B46DA02C2E5D09CEFC56EC)
Complete name : E:\-=Docu=-\Docu TV\Top Secret UFO Projects Declassified (2021)\Top.Secret.UFO.Projects.Declassified.S01.1080p.WEBRip.x265-An0mla1\Top.Secret.UFO.Projects.Declassified.S01E01.1080p.WEBRip.x265-An0mla1.mkv
Format : Matroska
Format version : Version 4
File size : 669 MiB
Duration : 45 min 0 s
Overall bit rate : 2 077 kb/s
Encoded date : UTC 2023-04-20 00:32:05
Writing application : mkvmerge v67.0.0 ('Under Stars') 64-bit
Writing library : libebml v1.4.2 + libmatroska v1.6.4

Video
ID : 1
Format : HEVC
Format/Info : High Efficiency Video Coding
Format profile : Main 10@L4@Main
Codec ID : V_MPEGH/ISO/HEVC
Duration : 44 min 59 s
Bit rate : 1 942 kb/s
Width : 1 920 pixels
Height : 1 080 pixels
Display aspect ratio : 16:9
Frame rate mode : Constant
Frame rate : 25.000 FPS
Color space : YUV
Chroma subsampling : 4:2:0
Bit depth : 10 bits
Bits/(Pixel*Frame) : 0.037
Stream size : 625 MiB (93%)
Writing library : x265 3.5+37+12-4e46995bc:[Windows][MSVC 1931][64 bit] 10bit
Encoding settings : cpuid=1111039 / frame-threads=4 / numa-pools=16 / wpp / no-pmode / no-pme / no-psnr / no-ssim / log-level=2 / input-csp=1 / input-res=1920x1080 / interlace=0 / total-frames=67482 / level-idc=0 / high-tier=1 / uhd-bd=0 / ref=4 / no-allow-non-conformance / no-repeat-headers / annexb / no-aud / no-eob / no-eos / no-hrd / info / hash=0 / no-temporal-layers / open-gop / min-keyint=25 / keyint=250 / gop-lookahead=0 / bframes=8 / b-adapt=2 / b-pyramid / bframe-bias=0 / rc-lookahead=25 / lookahead-slices=4 / scenecut=40 / no-hist-scenecut / radl=0 / no-splice / no-intra-refresh / ctu=64 / min-cu-size=8 / rect / no-amp / max-tu-size=32 / tu-inter-depth=1 / tu-intra-depth=1 / limit-tu=0 / rdoq-level=2 / dynamic-rd=0.00 / no-ssim-rd / signhide / no-tskip / nr-intra=0 / nr-inter=0 / no-constrained-intra / strong-intra-smoothing / max-merge=3 / limit-refs=3 / limit-modes / me=3 / subme=3 / merange=57 / temporal-mvp / no-frame-dup / no-hme / weightp / no-weightb / no-analyze-src-pics / deblock=-3:-3 / no-sao / no-sao-non-deblock / rd=4 / selective-sao=0 / no-early-skip / rskip / no-fast-intra / no-tskip-fast / no-cu-lossless / no-b-intra / no-splitrd-skip / rdpenalty=0 / psy-rd=2.00 / psy-rdoq=1.00 / no-rd-refine / no-lossless / cbqpoffs=0 / crqpoffs=0 / rc=abr / bitrate=2000 / qcomp=0.60 / qpstep=4 / stats-write=0 / stats-read=0 / ipratio=1.40 / pbratio=1.30 / aq-mode=5 / aq-strength=1.00 / aq-bias-strength=1.00 / cutree / zone-count=0 / no-strict-cbr / qg-size=32 / no-rc-grain / qpmax=69 / qpmin=0 / no-const-vbv / sar=0 / overscan=0 / videoformat=5 / range=0 / colorprim=2 / transfer=2 / colormatrix=2 / chromaloc=0 / display-window=0 / cll=0,0 / min-luma=0 / max-luma=1023 / log2-max-poc-lsb=8 / vui-timing-info / vui-hrd-info / slices=1 / no-opt-qp-pps / no-opt-ref-list-length-pps / no-multi-pass-opt-rps / scenecut-bias=0.05 / hist-threshold=0.03 / no-opt-cu-delta-qp / no-aq-motion / no-hdr10 / no-hdr10-opt / no-dhdr10-opt / no-idr-recovery-sei / analysis-reuse-level=0 / analysis-save-reuse-level=0 / analysis-load-reuse-level=0 / scale-factor=0 / refine-intra=0 / refine-inter=0 / refine-mv=1 / refine-ctu-distortion=0 / no-limit-sao / ctu-info=0 / no-lowpass-dct / refine-analysis-type=0 / copy-pic=1 / max-ausize-factor=1.0 / no-dynamic-refine / no-single-sei / no-hevc-aq / no-svt / no-field / qp-adaptation-range=1.00 / scenecut-aware-qp=0conformance-window-offsets / right=0 / bottom=0 / decoder-max-rate=0 / no-vbv-live-multi-pass
Default : Yes
Forced : No

Audio
ID : 2
Format : E-AC-3
Format/Info : Enhanced AC-3
Commercial name : Dolby Digital Plus
Codec ID : A_EAC3
Duration : 45 min 0 s
Bit rate mode : Constant
Bit rate : 128 kb/s
Channel(s) : 2 channels
Channel layout : L R
Sampling rate : 48.0 kHz
Frame rate : 31.250 FPS (1536 SPF)
Compression mode : Lossy
Stream size : 41.2 MiB (6%)
Language : English
Service kind : Complete Main
Default : Yes
Forced : No

Text #1
ID : 3
Format : UTF-8
Codec ID : S_TEXT/UTF8
Codec ID/Info : UTF-8 Plain Text
Duration : 43 min 26 s
Bit rate : 103 b/s
Count of elements : 727
Stream size : 33.0 KiB (0%)
Title : English
Language : English
Default : No
Forced : No

Text #2
ID : 4
Format : UTF-8
Codec ID : S_TEXT/UTF8
Codec ID/Info : UTF-8 Plain Text
Duration : 44 min 3 s
Bit rate : 159 b/s
Count of elements : 658
Stream size : 51.6 KiB (0%)
Title : Arabic
Language : Arabic
Default : No
Forced : No

Text #3
ID : 5
Format : UTF-8
Codec ID : S_TEXT/UTF8
Codec ID/Info : UTF-8 Plain Text
Duration : 44 min 2 s
Bit rate : 89 b/s
Count of elements : 653
Stream size : 28.9 KiB (0%)
Title : Czech
Language : Czech
Default : No
Forced : No

Text #4
ID : 6
Format : UTF-8
Codec ID : S_TEXT/UTF8
Codec ID/Info : UTF-8 Plain Text
Duration : 44 min 2 s
Bit rate : 89 b/s
Count of elements : 595
Stream size : 28.9 KiB (0%)
Title : Danish
Language : Danish
Default : No
Forced : No

Text #5
ID : 7
Format : UTF-8
Codec ID : S_TEXT/UTF8
Codec ID/Info : UTF-8 Plain Text
Duration : 44 min 2 s
Bit rate : 99 b/s
Count of elements : 658
Stream size : 32.0 KiB (0%)
Title : German
Language : German
Default : No
Forced : No

Text #6
ID : 8
Format : UTF-8
Codec ID : S_TEXT/UTF8
Codec ID/Info : UTF-8 Plain Text
Duration : 44 min 2 s
Bit rate : 161 b/s
Count of elements : 649
Stream size : 52.1 KiB (0%)
Title : Greek
Language : Greek
Default : No
Forced : No

Text #7
ID : 9
Format : UTF-8
Codec ID : S_TEXT/UTF8
Codec ID/Info : UTF-8 Plain Text
Duration : 44 min 2 s
Bit rate : 87 b/s
Count of elements : 658
Stream size : 28.4 KiB (0%)
Title : Spanish
Language : Spanish
Default : No
Forced : No

Text #8
ID : 10
Format : UTF-8
Codec ID : S_TEXT/UTF8
Codec ID/Info : UTF-8 Plain Text
Duration : 43 min 27 s
Bit rate : 90 b/s
Count of elements : 653
Stream size : 28.7 KiB (0%)
Title : European Spanish
Language : Spanish
Default : No
Forced : No

Text #9
ID : 11
Format : UTF-8
Codec ID : S_TEXT/UTF8
Codec ID/Info : UTF-8 Plain Text
Duration : 44 min 2 s
Bit rate : 83 b/s
Count of elements : 601
Stream size : 27.0 KiB (0%)
Title : Finnish
Language : Finnish
Default : No
Forced : No

Text #10
ID : 12
Format : UTF-8
Codec ID : S_TEXT/UTF8
Codec ID/Info : UTF-8 Plain Text
Duration : 43 min 27 s
Bit rate : 96 b/s
Count of elements : 629
Stream size : 30.6 KiB (0%)
Title : French
Language : French
Default : No
Forced : No

Text #11
ID : 13
Format : UTF-8
Codec ID : S_TEXT/UTF8
Codec ID/Info : UTF-8 Plain Text
Duration : 44 min 2 s
Bit rate : 151 b/s
Count of elements : 651
Stream size : 48.7 KiB (0%)
Title : Hebrew
Language : Hebrew
Default : No
Forced : No

Text #12
ID : 14
Format : UTF-8
Codec ID : S_TEXT/UTF8
Codec ID/Info : UTF-8 Plain Text
Duration : 44 min 2 s
Bit rate : 83 b/s
Count of elements : 647
Stream size : 26.9 KiB (0%)
Title : Croatian
Language : Croatian
Default : No
Forced : No

Text #13
ID : 15
Format : UTF-8
Codec ID : S_TEXT/UTF8
Codec ID/Info : UTF-8 Plain Text
Duration : 44 min 2 s
Bit rate : 92 b/s
Count of elements : 632
Stream size : 29.8 KiB (0%)
Title : Hungarian
Language : Hungarian
Default : No
Forced : No

Text #14
ID : 16
Format : UTF-8
Codec ID : S_TEXT/UTF8
Codec ID/Info : UTF-8 Plain Text
Duration : 44 min 2 s
Bit rate : 92 b/s
Count of elements : 654
Stream size : 29.9 KiB (0%)
Title : Indonesian
Language : Indonesian
Default : No
Forced : No

Text #15
ID : 17
Format : UTF-8
Codec ID : S_TEXT/UTF8
Codec ID/Info : UTF-8 Plain Text
Duration : 44 min 2 s
Bit rate : 90 b/s
Count of elements : 643
Stream size : 29.3 KiB (0%)
Title : Italian
Language : Italian
Default : No
Forced : No

Text #16
ID : 18
Format : UTF-8
Codec ID : S_TEXT/UTF8
Codec ID/Info : UTF-8 Plain Text
Duration : 44 min 2 s
Bit rate : 118 b/s
Count of elements : 715
Stream size : 38.3 KiB (0%)
Title : Japanese
Language : Japanese
Default : No
Forced : No

Text #17
ID : 19
Format : UTF-8
Codec ID : S_TEXT/UTF8
Codec ID/Info : UTF-8 Plain Text
Duration : 44 min 2 s
Bit rate : 111 b/s
Count of elements : 655
Stream size : 35.9 KiB (0%)
Title : Korean
Language : Korean
Default : No
Forced : No

Text #18
ID : 20
Format : UTF-8
Codec ID : S_TEXT/UTF8
Codec ID/Info : UTF-8 Plain Text
Duration : 44 min 2 s
Bit rate : 92 b/s
Count of elements : 655
Stream size : 29.8 KiB (0%)
Title : Malay
Language : Malay
Default : No
Forced : No

Text #19
ID : 21
Format : UTF-8
Codec ID : S_TEXT/UTF8
Codec ID/Info : UTF-8 Plain Text
Duration : 44 min 2 s
Bit rate : 91 b/s
Count of elements : 607
Stream size : 29.4 KiB (0%)
Title : Norwegian
Language : Norwegian Bokmal
Default : No
Forced : No

Text #20
ID : 22
Format : UTF-8
Codec ID : S_TEXT/UTF8
Codec ID/Info : UTF-8 Plain Text
Duration : 44 min 2 s
Bit rate : 87 b/s
Count of elements : 599
Stream size : 28.4 KiB (0%)
Title : Dutch
Language : Dutch
Default : No
Forced : No

Text #21
ID : 23
Format : UTF-8
Codec ID : S_TEXT/UTF8
Codec ID/Info : UTF-8 Plain Text
Duration : 44 min 2 s
Bit rate : 82 b/s
Count of elements : 619
Stream size : 26.6 KiB (0%)
Title : Polish
Language : Polish
Default : No
Forced : No

Text #22
ID : 24
Format : UTF-8
Codec ID : S_TEXT/UTF8
Codec ID/Info : UTF-8 Plain Text
Duration : 44 min 2 s
Bit rate : 92 b/s
Count of elements : 649
Stream size : 30.0 KiB (0%)
Title : Portuguese
Language : Portuguese
Default : No
Forced : No

Text #23
ID : 25
Format : UTF-8
Codec ID : S_TEXT/UTF8
Codec ID/Info : UTF-8 Plain Text
Duration : 43 min 27 s
Bit rate : 94 b/s
Count of elements : 666
Stream size : 30.2 KiB (0%)
Title : Brazilian Portuguese
Language : Portuguese
Default : No
Forced : No

Text #24
ID : 26
Format : UTF-8
Codec ID : S_TEXT/UTF8
Codec ID/Info : UTF-8 Plain Text
Duration : 43 min 27 s
Bit rate : 103 b/s
Count of elements : 613
Stream size : 32.9 KiB (0%)
Title : Romanian
Language : Romanian
Default : No
Forced : No

Text #25
ID : 27
Format : UTF-8
Codec ID : S_TEXT/UTF8
Codec ID/Info : UTF-8 Plain Text
Duration : 44 min 2 s
Bit rate : 171 b/s
Count of elements : 716
Stream size : 55.3 KiB (0%)
Title : Russian
Language : Russian
Default : No
Forced : No

Text #26
ID : 28
Format : UTF-8
Codec ID : S_TEXT/UTF8
Codec ID/Info : UTF-8 Plain Text
Duration : 44 min 2 s
Bit rate : 88 b/s
Count of elements : 558
Stream size : 28.6 KiB (0%)
Title : Swedish
Language : Swedish
Default : No
Forced : No

Text #27
ID : 29
Format : UTF-8
Codec ID : S_TEXT/UTF8
Codec ID/Info : UTF-8 Plain Text
Duration : 44 min 2 s
Bit rate : 255 b/s
Count of elements : 658
Stream size : 82.5 KiB (0%)
Title : Thai
Language : Thai
Default : No
Forced : No

Text #28
ID : 30
Format : UTF-8
Codec ID : S_TEXT/UTF8
Codec ID/Info : UTF-8 Plain Text
Duration : 44 min 2 s
Bit rate : 95 b/s
Count of elements : 665
Stream size : 30.8 KiB (0%)
Title : Turkish
Language : Turkish
Default : No
Forced : No

Text #29
ID : 31
Format : UTF-8
Codec ID : S_TEXT/UTF8
Codec ID/Info : UTF-8 Plain Text
Duration : 44 min 2 s
Bit rate : 151 b/s
Count of elements : 653
Stream size : 48.7 KiB (0%)
Title : Turkish
Language : Turkish
Default : No
Forced : No

Text #30
ID : 32
Format : UTF-8
Codec ID : S_TEXT/UTF8
Codec ID/Info : UTF-8 Plain Text
Duration : 44 min 2 s
Bit rate : 140 b/s
Count of elements : 603
Stream size : 45.4 KiB (0%)
Title : Vietnamese
Language : Vietnamese
Default : No
Forced : No

Text #31
ID : 33
Format : UTF-8
Codec ID : S_TEXT/UTF8
Codec ID/Info : UTF-8 Plain Text
Duration : 44 min 2 s
Bit rate : 96 b/s
Count of elements : 654
Stream size : 31.1 KiB (0%)
Title : Simplified Chinese
Language : Chinese
Default : No
Forced : No

Text #32
ID : 34
Format : UTF-8
Codec ID : S_TEXT/UTF8
Codec ID/Info : UTF-8 Plain Text
Duration : 44 min 2 s
Bit rate : 72 b/s
Count of elements : 561
Stream size : 23.5 KiB (0%)
Title : Traditional Chinese
Language : Chinese
Default : No
Forced : No